<?xml version="1.0" standalone="no"?>
<!DOCTYPE svg PUBLIC "-//W3C//DTD SVG 1.1//EN" "http://www.w3.org/Graphics/SVG/1.1/DTD/svg11.dtd" >
<svg xmlns="http://www.w3.org/2000/svg">
<metadata>Generated by IcoMoon</metadata>
<defs>
<font id="icomoon" horiz-adv-x="1024">
<font-face units-per-em="1024" ascent="960" descent="-64" />
<missing-glyph horiz-adv-x="1024" />
<glyph unicode="&#x20;" horiz-adv-x="512" d="" />
<glyph unicode="&#xe900;" glyph-name="wishlist-Selected" d="M94.959 820.196c-99.364-104.335-99.247-271.651 0-376.066l398.512-419.382c4.761-5.033 11.383-7.884 18.311-7.884s13.55 2.851 18.311 7.884c132.985 139.642 265.92 279.344 398.906 418.988 99.361 104.338 99.361 271.729 0 376.067-99.364 104.337-262.133 104.34-361.496 0l-55.525-57.887-55.523 58.28c-49.683 52.169-115.195 78.364-180.749 78.364s-131.067-26.195-180.747-78.364z" />
<glyph unicode="&#xe901;" glyph-name="Verified" d="M522.24 898.56c254.493 0 460.8-206.307 460.8-460.8s-206.307-460.8-460.8-460.8c-254.493 0-460.8 206.307-460.8 460.8s206.307 460.8 460.8 460.8zM522.24 847.074c-226.058 0-409.314-183.256-409.314-409.314s183.256-409.314 409.314-409.314c226.058 0 409.314 183.256 409.314 409.314s-183.256 409.314-409.314 409.314zM706.303 592.218l34.753-37.327-284.46-271.589-153.171 162.181 37.327 34.753 117.131-123.566 248.42 235.549z" />
<glyph unicode="&#xe902;" glyph-name="unavail" d="M522.24-23.040c254.493 0 460.8 206.307 460.8 460.8s-206.307 460.8-460.8 460.8c-254.493 0-460.8-206.307-460.8-460.8s206.307-460.8 460.8-460.8v0zM522.24 847.074c226.058 0 409.314-183.256 409.314-409.314s-183.256-409.314-409.314-409.314c-226.058 0-409.314 183.256-409.314 409.314s183.256 409.314 409.314 409.314zM710.242 626.375l0.614-0.614c7.926-7.926 7.926-20.778 0-28.704l-159.298-159.298 159.298-159.298c7.926-7.926 7.926-20.778 0-28.704l-0.614-0.614c-7.926-7.926-20.778-7.926-28.704 0l-159.298 159.298-159.298-159.298c-7.926-7.926-20.778-7.926-28.704 0l-0.614 0.614c-7.926 7.926-7.926 20.778 0 28.704l159.298 159.298-159.298 159.298c-7.926 7.926-7.926 20.778 0 28.704l0.614 0.614c7.926 7.926 20.778 7.926 28.704 0l159.298-159.298 159.298 159.298c7.926 7.926 20.778 7.926 28.704 0z" />
<glyph unicode="&#xe903;" glyph-name="wishlist" d="M275.706 898.56c-65.554 0-131.067-26.195-180.747-78.364-99.364-104.335-99.247-271.651 0-376.066l398.512-419.382c4.761-5.033 11.383-7.884 18.311-7.884s13.55 2.851 18.311 7.884c132.985 139.642 265.92 279.344 398.906 418.988 99.361 104.338 99.361 271.729 0 376.067-99.364 104.337-262.133 104.34-361.496 0l-55.525-57.887-55.523 58.28c-49.683 52.169-115.195 78.364-180.749 78.364v0zM275.706 848.943c51.961 0 104.155-21.014 144.52-63.4l73.637-77.576c4.761-5.033 11.383-7.885 18.311-7.885s13.551 2.852 18.311 7.885l73.244 77.182c80.729 84.772 207.915 84.771 288.645 0 80.728-84.77 80.728-221.988 0-306.76-126.84-133.189-253.558-266.503-380.398-399.693l-380.398 400.087c-80.673 84.874-80.728 221.991 0 306.76 40.364 42.385 92.165 63.4 144.126 63.4z" />
<glyph unicode="&#xe904;" glyph-name="social-youtube" d="M406.288 308.824l276.566 141.339-276.566 143.035v-284.374zM512 796.16c215.424 0 358.279-10.176 358.279-10.176 20-2.261 63.999-2.261 102.855-42.967 0 0 31.428-30.529 40.571-100.633 10.857-81.977 10.291-163.953 10.291-163.953v-76.888c0 0 0.566-81.977-10.291-163.953-9.143-69.539-40.571-100.633-40.571-100.633-38.856-40.14-82.855-40.14-102.855-42.402 0 0-142.854-10.742-358.279-10.742-266.28 2.261-347.993 10.176-347.993 10.176-22.857 3.957-74.284 2.827-113.141 42.967 0 0-31.428 31.095-40.571 100.633-10.857 81.977-10.291 163.953-10.291 163.953v76.888c0 0-0.566 81.977 10.291 163.953 9.143 70.104 40.571 100.633 40.571 100.633 38.856 40.706 82.855 40.706 102.855 42.967 0 0 142.854 10.176 358.279 10.176z" />
<glyph unicode="&#xe905;" glyph-name="Signout" d="M666.26 786.516c179.348-69.46 283.78-256.82 248.534-445.892s-200.173-326.219-392.502-326.39c-191.829 0.165-356.493 136.582-392.334 325.033s67.248 375.792 245.624 446.365c6.467 3.29 14.24 2.632 20.062-1.698s8.688-11.585 7.397-18.726c-1.291-7.14-6.516-12.932-13.486-14.949-169.487-66.904-262.691-249.487-217.461-425.998s214.754-291.772 395.53-268.923c180.775 22.848 316.291 176.664 316.181 358.877-0.769 149.083-92.415 282.609-231.251 336.928-6.786 2.105-11.832 7.819-13.082 14.814s1.504 14.103 7.141 18.428c5.637 4.326 13.215 5.148 19.648 2.131zM522.291 898.56c10.501 0 19.013-8.512 19.013-19.013v-359.656c0.071-5.088-1.901-9.993-5.474-13.616s-8.45-5.662-13.539-5.662c-10.501 0-19.013 8.512-19.013 19.013v359.921c0 10.501 8.512 19.013 19.013 19.013z" />
<glyph unicode="&#xe906;" glyph-name="social-facebook" d="M752.817 892.062v-142.966h-84.696c-66.354 0-78.762-31.951-78.762-77.982v-102.351h158.063l-21.039-160.295h-137.024v-411.028h-165.076v411.028h-137.563v160.295h137.563v118.055c0 137.009 83.617 211.742 205.536 211.742 58.262 0 108.432-4.332 122.998-6.498z" />
<glyph unicode="&#xe907;" glyph-name="Share" d="M802.211 541.001c47.417 0 92.895 18.83 126.424 52.36 33.52 33.529 52.36 79.007 52.36 126.415 0 47.417-18.839 92.895-52.36 126.424-33.529 33.52-79.007 52.36-126.424 52.36-47.408 0-92.886-18.839-126.415-52.36-33.529-33.529-52.36-79.007-52.36-126.424-0.068-19.104 3.036-38.096 9.193-56.183l-245.689-122.593c-29.195 41.918-74.92 69.352-125.653 75.373-50.727 6.020-101.608-9.954-139.797-43.877-38.19-33.932-60.049-82.573-60.049-133.659s21.857-99.727 60.049-133.659c38.19-33.923 89.072-49.897 139.797-43.877 50.736 6.020 96.459 33.453 125.653 75.373l245.689-123.097c-6.097-17.932-9.201-36.745-9.193-55.679-0.162-57.807 27.485-112.159 74.287-146.082 46.802-33.914 107.063-43.271 161.947-25.125 54.882 18.138 97.7 61.561 115.060 116.693 17.368 55.132 7.175 115.255-27.408 161.579-34.573 46.323-89.311 73.192-147.109 72.225-57.789-0.975-111.597-29.674-144.596-77.133l-245.689 122.593c12.263 36.454 12.263 75.929 0 112.383l245.689 123.097c33.231-48.229 88.028-77.065 146.597-77.124l-0.002-0.002zM700.047 234.519h0.009c24.389 32.426 62.794 51.274 103.37 50.727s78.459-20.429 101.958-53.514c23.507-33.076 29.819-75.39 16.983-113.887-12.836-38.499-43.271-68.564-81.923-80.922-38.652-12.365-80.878-5.541-113.674 18.368-32.787 23.91-52.207 62.023-52.258 102.608-0.017 11.228 1.531 22.395 4.601 33.196 4.472 15.948 12.305 30.76 22.986 43.424l-2.052-0.001zM368.040 438.837c0.017-11.228-1.531-22.404-4.601-33.205-4.241-16.555-11.895-32.034-22.474-45.46-21.968-28.1-54.694-45.725-90.244-48.615-35.548-2.89-70.686 9.218-96.914 33.393-26.22 24.175-41.141 58.218-41.141 93.886s14.922 69.712 41.141 93.886c26.226 24.175 61.364 36.283 96.914 33.393 35.548-2.89 68.275-20.515 90.244-48.615 10.578-13.426 18.232-28.903 22.474-45.46 3.070-10.8 4.618-21.977 4.601-33.205zM674.522 719.772c-0.975 41.082 17.719 80.152 50.316 105.174 32.599 25.013 75.176 32.967 114.598 21.396 39.431-11.561 70.968-41.252 84.889-79.913 13.913-38.661 8.543-81.64-14.469-115.684s-60.885-55.053-101.949-56.559c-41.064-1.496-80.366 16.692-105.798 48.965-10.937 13.263-18.796 28.792-22.986 45.469-2.89 10.142-4.43 20.617-4.601 31.152v0.001z" />
<glyph unicode="&#xe908;" glyph-name="social-instagram" d="M812.825 692.92c-24.28 0-44.030 19.749-44.030 44.030s19.749 44.034 44.030 44.034 44.034-19.753 44.034-44.034c0-24.28-19.754-44.030-44.034-44.030zM522.24 217.599c-121.398 0-220.16 98.762-220.16 220.161s98.762 220.159 220.16 220.159c121.4 0 220.16-98.762 220.16-220.159 0-121.399-98.76-220.161-220.16-220.161zM724.18 878.080h-403.878c-131.446 0-238.382-106.936-238.382-238.382v-403.885c0-131.439 106.936-238.373 238.382-238.373h403.884c131.439 0 238.375 106.934 238.375 238.373v403.885c0 131.446-106.936 238.382-238.38 238.382z" />
<glyph unicode="&#xe909;" glyph-name="social-Twitter" d="M983.040 746.504c-35.034-15.368-72.364-25.554-111.283-30.5 40.038 23.905 70.597 61.471 84.964 106.749-37.33-22.257-78.546-37.978-122.47-46.751-35.446 37.742-85.965 61.117-141.076 61.117-106.926 0-193.009-86.789-193.009-193.185 0-15.309 1.295-30.029 4.475-44.042-160.566 7.831-302.643 84.787-398.088 202.017-16.663-28.91-26.437-62.001-26.437-97.623 0-66.888 34.445-126.18 85.788-160.507-31.030 0.589-61.471 9.597-87.26 23.788 0-0.589 0-1.354 0-2.12 0-93.855 66.947-171.812 154.737-189.77-15.721-4.298-32.855-6.359-50.637-6.359-12.365 0-24.847 0.707-36.564 3.297 25.024-76.485 96.033-132.716 180.467-134.541-65.71-51.402-149.143-82.373-239.465-82.373-15.839 0-31.030 0.707-46.221 2.65 85.553-55.171 186.944-86.671 296.284-86.671 355.4 0 549.704 294.4 549.704 549.586 0 8.538-0.294 16.781-0.707 24.965 38.331 27.203 70.538 61.176 96.799 100.273z" />
<glyph unicode="&#xe90a;" glyph-name="star" d="M1022.457 568.645c-4.142 12.789-14.473 21.413-45.466 24.303l-282.81 26.237c-16.794 1.559-26.010 8.26-32.677 23.734l-112.334 260.862c-12.311 28.593-23.689 35.738-37.16 35.738-13.46 0-24.849-7.145-37.172-35.761l-112.334-260.862c-6.667-15.474-15.884-22.176-32.689-23.734l-282.798-26.226c-30.982-2.89-41.325-11.514-45.478-24.303-4.164-12.8-0.887-25.839 22.517-46.399l213.359-187.44c12.675-11.139 16.191-21.982 12.493-38.435l-62.465-277.064c-6.838-30.379-1.82-42.872 9.068-50.768 10.889-7.908 24.303-8.818 51.075 7.077l244.227 145c14.507 8.624 25.885 8.624 40.392 0l244.204-145c26.784-15.884 40.198-14.973 51.087-7.066s15.884 20.389 9.068 50.768l-62.465 277.064c-3.698 16.452-0.182 27.284 12.493 38.446l213.359 187.429c23.393 20.56 26.681 33.599 22.506 46.399z" />
<glyph unicode="&#xe90b;" glyph-name="Store" d="M450.263 142.57c10.629 0 19.248 8.616 19.248 19.24v38.634c0 10.626-8.619 19.24-19.248 19.24s-19.248-8.614-19.248-19.24v-38.634c0-10.624 8.619-19.24 19.248-19.24zM963.653 452.040h-904.676v76.39h904.676v-76.39zM915.755 56.4h-70.384v290.812c0 10.624-8.619 19.24-19.248 19.24h-629c-10.631 0-19.248-8.616-19.248-19.24v-290.812h-70.388v357.161h808.268v-357.161zM806.875 327.972v-271.571h-276.005v271.571h276.005zM492.373 327.97v-271.571h-276.003v271.571h276.003zM872.35 743.876l80.634-176.966h-883.58l79.051 176.966h723.895zM869.336 839.6v-57.244h-714.117v57.244h714.117zM1002.121 548.251c-0.010 0.269-0.021 0.535-0.040 0.804-0.038 0.519-0.098 1.033-0.177 1.541-0.033 0.208-0.056 0.416-0.094 0.625-0.279 1.491-0.73 2.919-1.332 4.269-0.023 0.050-0.037 0.102-0.058 0.154l-92.926 203.939c0.214 1.147 0.339 2.324 0.339 3.532v95.724c0 10.624-8.619 19.24-19.248 19.24h-752.614c-10.629 0-19.248-8.616-19.248-19.24v-91.626l-94.569-211.7c-0.015-0.033-0.025-0.069-0.038-0.102-0.308-0.698-0.579-1.414-0.801-2.151-0.013-0.038-0.019-0.081-0.033-0.119-0.194-0.652-0.348-1.322-0.472-2.001-0.042-0.217-0.067-0.439-0.102-0.658-0.071-0.498-0.127-1-0.162-1.508-0.019-0.266-0.033-0.531-0.040-0.795-0.004-0.171-0.025-0.339-0.025-0.51v-114.87c0-10.624 8.619-19.24 19.248-19.24h29.261v-376.401c0-10.624 8.619-19.24 19.248-19.24h846.765c10.631 0 19.248 8.616 19.248 19.24v376.401h28.649c10.629 0 19.248 8.616 19.248 19.24v114.87c0 0.198-0.025 0.387-0.029 0.581v0zM575.528 219.684c-10.629 0-19.248-8.616-19.248-19.24v-38.634c0-10.626 8.619-19.24 19.248-19.24s19.248 8.614 19.248 19.24v38.634c0 10.624-8.619 19.24-19.248 19.24z" />
<glyph unicode="&#xe90c;" glyph-name="social-Google" d="M874.199 516.867h-354.095v-145.836h197.122c-17.745-47.356-51.428-86.914-94.53-112.193h-0.003c-32.468-19.058-70.305-29.976-110.693-29.976-93.963 0-174.112 59.144-205.243 142.23v0.001c-8.993 23.92-13.896 49.847-13.897 76.908 0 24.934 4.172 48.895 11.83 71.217h0.001c29.57 86.064 111.22 147.923 207.31 147.923 42.553 0 82.276-12.133 115.878-33.137l119.424 97.77c-63.844 53.006-145.856 84.868-235.302 84.868-142.474 0-266.069-80.817-327.421-199.106-26.352-50.759-41.219-108.405-41.219-169.534 0-63.217 15.9-122.704 43.932-174.699v-0.001c62.266-115.472 184.32-193.939 324.708-193.939 87.359 0 167.61 30.381 230.783 81.161l-0.019 0.020h0.001l0.019-0.020c64.958 52.217 111.849 126.006 129.794 210.509 5.286 24.833 8.061 50.577 8.061 76.969 0 23.537-2.209 46.567-6.441 68.867z" />
<glyph unicode="&#xe90d;" glyph-name="Trash" d="M643.99 919.040c10.133-0.204 18.309-8.35 18.552-18.482v0-91.232h193.739c4.675 0.121 9.199-1.66 12.538-4.935s5.205-7.765 5.173-12.442v0-152.99c0.022-4.653-1.855-9.114-5.198-12.35s-7.862-4.968-12.512-4.795v0h-34.155v-605.892c0.218-9.944-7.632-18.199-17.574-18.482v0h-571.272c-9.942 0.283-17.792 8.538-17.574 18.482v0 605.892h-34.155c-4.65-0.173-9.169 1.558-12.512 4.795s-5.22 7.697-5.198 12.35v0 152.99c-0.032 4.677 1.834 9.166 5.173 12.442s7.862 5.056 12.538 4.935v0h193.739v91.232c0.243 10.136 8.425 18.283 18.562 18.482v0zM786.22 621.814h-534.608v-588.468h534.608v588.468zM536.869 520.079v-357.070h-35.906v357.070h35.906zM417.181 520.079v-357.070h-35.906v357.070h35.906zM656.558 520.079v-357.070h-35.906v357.070h35.906zM838.085 773.419h-638.338v-115.699h638.338v115.699zM626.636 883.134h-215.439v-73.808h215.439v73.808z" />
<glyph unicode="&#xe90e;" glyph-name="Play" d="M522.24-23.040c254.592 0 460.8 206.216 460.8 460.8 0 254.588-206.208 460.8-460.8 460.8s-460.8-206.212-460.8-460.8c0-254.584 206.208-460.8 460.8-460.8zM368.64 599.808c0 29.952 32.64 48.384 58.368 33.028l270.72-162.056c24.96-14.972 24.96-51.064 0-66.048l-270.72-162.044c-25.728-15.356-58.368 3.072-58.368 33.028v324.092z" />
<glyph unicode="&#xe90f;" glyph-name="Question" d="M501.76 919.040c254.728 0 460.8-207.026 460.8-460.8s-207.026-460.8-460.8-460.8c-254.728 0-460.8 207.026-460.8 460.8s206.072 460.8 460.8 460.8zM501.76 862.752c-223.245 0-403.558-181.267-403.558-404.512 0-222.291 181.267-403.558 403.558-403.558s403.558 181.267 403.558 403.558c0 223.245-181.267 404.512-403.558 404.512zM506.53 267.433c20.022 0 36.253-16.231 36.253-36.253s-16.231-36.253-36.253-36.253c-20.022 0-36.253 16.231-36.253 36.253s16.231 36.253 36.253 36.253zM506.53 703.428c87.771 0 158.37-70.599 158.37-157.416 0-79.185-57.242-144.060-132.611-156.462v0-54.38c0-14.311-11.448-25.759-25.759-25.759s-25.759 11.448-25.759 25.759v0 77.277c0 14.311 11.448 25.759 25.759 25.759 59.15 0 106.852 47.702 106.852 106.852s-47.702 106.852-106.852 106.852c-59.15 0-106.852-47.702-106.852-106.852 0-14.311-11.448-25.759-25.759-25.759s-25.759 11.448-25.759 25.759c0 87.771 71.553 158.37 158.37 158.37z" />
<glyph unicode="&#xe910;" glyph-name="Secure-payment" d="M773.54 578.016c5.659 0 11.318-3.773 14.148-9.432 31.392-68.016 153.882-71.537 172.938-71.681l2.493-0.001 2.031-0.137c6.668-0.907 12.203-6.208 13.060-13.067 0.943-2.83 51.875-313.135-199.954-398.021-0.943-0.943-2.83-0.943-4.716-0.943s-2.83 0-4.716 0.943c-252.772 83.943-201.84 395.192-200.897 398.021 1.886 7.545 8.489 13.205 16.034 13.205v0h0.714c10.881 0.036 142.068 1.85 174.717 71.682 2.83 5.659 8.489 9.432 14.148 9.432zM772.597 531.8c-45.273-55.648-140.534-65.079-176.374-66.022-2.83-24.523-6.602-81.113 5.659-142.42 21.693-104.693 78.284-173.545 170.715-206.556 91.488 33.011 149.022 101.863 170.715 206.556 12.261 61.307 8.489 117.897 5.659 142.42-35.841 0.943-131.102 10.375-176.374 66.022zM776.369 816.64c35.841 0 65.079-29.239 65.079-65.079v0-187.693l-31.125 19.807v167.886c0 17.92-14.148 33.011-33.011 33.011v0h-650.793c-18.864 0-33.954-15.091-33.011-33.011v0-396.135c0-17.92 14.148-33.011 33.011-33.011v0h404.624c1.886-10.375 3.773-20.75 6.602-31.125v0h-315.022v-98.091c0-17.92 14.148-33.011 33.011-33.011v0h339.544c7.545-10.375 16.034-20.75 25.466-31.125v0h-364.067c-35.841 0-65.079 29.239-65.079 65.079v0 97.147h-65.079c-35.841 0-65.079 29.239-65.079 65.079v0 395.192c0 35.841 29.239 65.079 65.079 65.079v0zM843.335 387.494c5.659 5.659 15.091 4.716 21.693-0.943 5.659-5.659 4.716-15.091-0.943-20.75v0l-115.068-109.409c-2.83-2.83-6.602-3.773-10.375-3.773s-7.545 1.886-10.375 4.716v0l-47.159 48.102c-5.659 5.659-5.659 15.091 0 20.75s15.091 5.659 20.75 0v0l36.784-37.727zM361.371 408.244c9.432 0 16.034-6.602 16.034-16.034s-7.545-16.034-16.034-16.034v0h-201.84c-9.432 0-16.034 6.602-16.034 16.034s7.545 16.034 16.034 16.034v0zM450.973 481.812c9.432 0 16.034-7.545 16.034-16.034s-6.602-15.091-16.034-16.034v0h-292.385c-9.432 0-16.034 6.602-16.034 16.034s7.545 16.034 16.034 16.034v0zM249.133 703.459c9.432 0 16.034-7.545 16.034-16.034v0-97.147c0-9.432-7.545-16.034-16.034-16.034v0 0.943h-96.204c-9.432 0-16.034 7.545-16.034 16.034v0 96.204c0 9.432 7.545 16.034 16.034 16.034v0zM694.313 695.913c6.602 5.659 16.034 5.659 22.636 0 31.125-31.125 31.125-83 0-114.125-2.83-2.83-7.545-4.716-11.318-4.716s-8.489 1.886-11.318 4.716c-6.602 5.659-6.602 16.034 0 21.693 18.864 18.864 18.864 50.932 0 69.795-5.659 6.602-5.659 16.034 0 22.636zM647.154 674.22c6.602 5.659 16.034 5.659 22.636 0 19.807-18.864 19.807-50.932 0-70.738-2.83-2.83-7.545-4.716-11.318-4.716s-8.489 1.886-11.318 4.716c-5.659 5.659-5.659 16.034 0 21.693 7.545 7.545 7.545 18.864 0 26.409-5.659 6.602-5.659 16.034 0 22.636zM234.042 671.391h-65.079v-65.079h65.079v65.079z" />
<glyph unicode="&#xe911;" glyph-name="Search" d="M617.070 837.295c-136.3 136.31-358.12 136.29-494.38 0-136.28-136.3-136.28-358.060 0-494.36 68.14-68.15 157.66-102.23 247.18-102.23 58.438 0 116.749 14.791 169.231 43.82l299.609-299.59c18.22-18.24 42.44-28.29 68.18-28.29 25.72 0 49.94 10.050 68.18 28.29 37.58 37.59 37.58 98.76 0 136.36l-214.773 214.759c-0.013 0.013-0.015 0.029-0.028 0.041s-0.029 0.015-0.041 0.028l-84.771 84.765c73.508 132.9 54.229 303.775-58.387 416.407zM151.65 371.895c-120.3 120.33-120.3 316.11 0 436.44 60.16 60.16 139.2 90.25 218.24 90.25 79.020 0 158.060-30.090 218.22-90.25 120.3-120.33 120.3-316.11 0-436.44-120.34-120.3-316.12-120.34-436.46 0zM946.11 13.895c-21.020-21.010-57.46-20.99-78.44 0l-200.326 200.314 78.44 78.44 200.326-200.314c21.62-21.63 21.62-56.82 0-78.44zM716.823 321.607l-78.44-78.44-63.96 63.956c14.866 10.754 29.269 22.43 42.648 35.811 13.372 13.375 25.041 27.771 35.79 42.63l63.962-63.958z" />
<glyph unicode="&#xe912;" glyph-name="Mouse-scroll" d="M592.017 898.56c131.117 0 237.781-106.681 237.781-237.798v0-446.038c0-131.083-106.664-237.764-237.764-237.764v0h-169.933c-131.1 0-237.781 106.681-237.781 237.764v0 446.038c0 131.117 106.681 237.798 237.781 237.798v0zM592.034 840.904h-169.933c-99.304 0-180.125-80.82-180.125-180.142v0-446.038c0-99.321 80.82-180.108 180.125-180.108v0h169.916c99.321 0 180.108 80.786 180.108 180.108v0h0.017v446.038c0 99.321-80.786 180.142-180.108 180.142v0zM507.076 333.19c15.906 0 28.811-12.922 28.811-28.845v0-119.823l46.498 40.698c11.989 10.497 30.202 9.276 40.698-2.713s9.276-30.202-2.696-40.665v0l-94.319-82.499c-1.407-1.221-3.052-1.848-4.596-2.747-0.305-0.17-0.543-0.39-0.848-0.56-0.729-0.39-1.306-1.085-2.069-1.424-0.305-0.102-0.594-0.17-0.899-0.271-3.408-1.357-6.97-2.154-10.565-2.154-0.034 0-0.034 0-0.034 0l-2.679 0.146c-2.672 0.288-5.317 0.99-7.886 2.008-0.271 0.102-0.594 0.17-0.865 0.271-0.763 0.339-1.357 1.034-2.086 1.424-0.305 0.17-0.526 0.39-0.831 0.56-1.543 0.899-3.205 1.526-4.612 2.747v0l-94.319 82.499c-11.989 10.463-13.176 28.675-2.713 40.665 10.48 11.989 28.675 13.21 40.682 2.713v0l46.481-40.698v119.823c0 15.923 12.922 28.845 28.845 28.845zM507.059 450.131c15.906 0 28.811-12.922 28.811-28.845v0-15.364c0-15.889-12.905-28.811-28.811-28.811-15.923 0-28.845 12.905-28.845 28.811v0 15.364c0 15.94 12.922 28.862 28.845 28.845zM507.076 776.838c52.874 0 95.913-43.022 95.913-95.913v0-75.055c0-52.891-43.039-95.913-95.913-95.913-52.908 0-95.93 43.022-95.913 95.913v0 75.055c0 52.891 43.022 95.913 95.913 95.913zM507.076 719.181c-21.095 0-38.274-17.161-38.274-38.257v0-75.055c0-21.095 17.178-38.257 38.274-38.257s38.257 17.161 38.257 38.257v0 75.055c0 21.095-17.161 38.257-38.257 38.257z" />
<glyph unicode="&#xe913;" glyph-name="Location" d="M510.507 919.040c191.519-0.207 346.667-155.522 346.667-347.042 0-296.625-316.641-587.995-330.153-600.505v0l-16.514-15.013-16.514 15.388c-13.511 11.885-330.153 303.505-330.153 600.505 0.207 191.373 155.294 346.46 346.667 346.667zM510.507 869.874c-164.305 0-297.5-133.195-297.5-297.5 0-240.077 240.828-492.539 297.5-548.587 56.673 56.047 297.5 308.51 297.5 548.587 0 164.305-133.195 297.5-297.5 297.5zM510.507 742.892c90.387-0.138 163.625-73.376 163.763-163.763 0-90.444-73.319-163.763-163.763-163.763s-163.763 73.319-163.763 163.763c0 90.444 73.319 163.763 163.763 163.763zM510.507 693.725c-63.29 0-114.596-51.307-114.596-114.596s51.307-114.596 114.596-114.596c63.261 0.069 114.527 51.335 114.596 114.596 0 63.29-51.307 114.596-114.596 114.596z" />
<glyph unicode="&#xe914;" glyph-name="Lock" d="M776.512 552.832h-28.64c0 0 0 0 0 0v0 110.469c0 131.949-95.126 235.259-231.167 235.259s-229.121-105.355-229.121-235.259v-109.446c0-1.023 0-1.023 0 0h-28.64c-63.418 0-114.561-51.143-115.584-115.584v-345.728c0-63.418 51.143-114.561 115.584-115.584h517.569c63.418 0 114.561 51.143 115.584 115.584v345.728c0 63.418-52.166 114.561-115.584 114.561zM344.864 552.832v110.469c0 98.195 67.509 177.978 171.841 177.978 103.309 0 173.887-77.738 173.887-177.978v-109.446c0-1.023 0-1.023 0 0 0 0 0 0 0 0h-345.728c0-1.023 0-1.023 0-1.023v0zM833.793 92.544c0-31.709-25.572-57.28-57.28-57.28h-517.569c-31.709 0-57.28 25.572-57.28 57.28v345.728c0 31.709 25.572 57.28 57.28 57.28h517.569c31.709 0 57.28-25.572 57.28-57.28v-345.728zM575.008 322.688c0-21.48-11.251-39.892-28.64-50.12h-1.023c0 0 1.023 0 1.023 0v-94.103c0-16.366-13.297-28.64-28.64-28.64-16.366 0-28.64 13.297-28.64 28.64v94.103c0 0 1.023 0 1.023 0h-1.023c-17.389 10.229-28.64 28.64-28.64 50.12 0 31.709 25.572 57.28 57.28 57.28 31.709 1.023 57.28-24.549 57.28-57.28z" />
<glyph unicode="&#xe915;" glyph-name="Mail" d="M843.189 775.68c76.974-0.080 139.445-62.287 139.851-139.26v0-371.36c-0.081-77.204-62.647-139.77-139.851-139.851v0h-641.897c-76.974 0.080-139.445 62.287-139.851 139.26v0 371.951c0.406 76.973 62.877 139.18 139.851 139.26v0zM843.189 731.33h-641.897c-52.514 0-95.176-42.397-95.501-94.91v0-371.36c0-52.744 42.757-95.501 95.501-95.501v0h641.897c52.229 0 94.773 41.947 95.501 94.171v0 372.099c0 52.744-42.757 95.501-95.501 95.501v0zM829.736 635.829c6.715 4.661 15.449 5.251 22.729 1.534s11.925-11.137 12.092-19.309c0.158-8.172-4.188-15.771-11.315-19.774v0l-308.826-193.072c-13.577-8.445-30.773-8.445-44.35 0v0l-308.826 193.072c-7.127 4.003-11.473 11.602-11.315 19.774 0.167 8.172 4.812 15.593 12.092 19.309s16.014 3.127 22.729-1.534v0l307.496-192.185 307.496 192.628z" />
<glyph unicode="&#xe916;" glyph-name="Minus" d="M111.505 488.96c-27.645 0-50.065-22.407-50.065-50.065 0-27.645 22.419-50.065 50.065-50.065h800.99c27.645 0 50.065 22.419 50.065 50.065s-22.419 50.065-50.065 50.065h-800.99z" />
<glyph unicode="&#xe917;" glyph-name="Menu" d="M935.371 192.353c26.327 0 47.669-17.785 47.669-39.724s-21.342-39.724-47.669-39.724h-826.262c-26.327 0-47.669 17.785-47.669 39.724s21.342 39.724 47.669 39.724h826.262zM935.371 494.257c26.327 0 47.669-17.785 47.669-39.724s-21.342-39.724-47.669-39.724h-826.262c-26.327 0-47.669 17.785-47.669 39.724s21.342 39.724 47.669 39.724h826.262zM935.371 796.16c26.327 0 47.669-17.785 47.669-39.724s-21.342-39.724-47.669-39.724h-826.262c-26.327 0-47.669 17.785-47.669 39.724s21.342 39.724 47.669 39.724h826.262z" />
<glyph unicode="&#xe918;" glyph-name="Order-Return" d="M521.946 734.72c1.346 0.006 2.693-0.195 3.976-0.602l261.52-83.069c1.99-0.312 3.905-1.099 5.538-2.278 2.214-1.469 3.953-3.642 4.9-6.124s1.098-5.26 0.426-7.83v-369.034c0-2.705-0.883-5.404-2.482-7.587s-3.905-3.84-6.484-4.657l-261.785-82.918c-1.428-0.654-2.976-1.044-4.544-1.143-1.567-0.096-3.153 0.090-4.651 0.565-0.023 0.006-0.047 0-0.070 0-0.045 0-0.089 0-0.134 0.064l-263.431 83.431c-2.579 0.817-4.885 2.473-6.484 4.657s-2.482 4.881-2.482 7.587v372.591c0 0.125 0.007 0.249 0.013 0.373 0 0.067 0.006 0.134 0.006 0.201 0.047 1.486 0.355 2.964 0.904 4.345s1.342 2.666 2.329 3.779c0.987 1.112 2.17 2.050 3.476 2.76s2.737 1.19 4.208 1.412l261.455 82.876c1.225 0.389 2.509 0.592 3.794 0.6v0zM522.034 708.4l-89.165-28.263 220.943-70.018 88.906 28.181-220.685 70.1zM390.356 666.661l-89.283-28.299 220.688-70.1 89.54 28.381-220.945 70.018zM772.62 620.829l-105.884-33.564 1.042-90.023c0.042-1.695-0.256-3.398-0.872-4.978s-1.547-3.036-2.724-4.256c-1.177-1.22-2.598-2.204-4.155-2.876s-3.247-1.032-4.943-1.051c-1.695-0.019-3.394 0.301-4.966 0.937s-3.016 1.586-4.221 2.779c-1.205 1.193-2.17 2.627-2.822 4.192s-0.989 3.261-0.987 4.956l-0.952 82.206-106.259-33.683v-345.58l237.741 75.301v345.641zM920.571 689.733c-3.995 6.863-12.825 9.203-19.701 5.195-6.89-4.001-9.175-12.824-5.188-19.687 46.372-79.634 65.822-170.312 56.138-262.217-24.965-236.889-237.946-409.302-474.851-384.367-79.137 8.333-153.53 37.888-216.28 85.759l44.669 1.607c7.894 0.285 14.173 6.958 13.841 14.906-0.264 7.948-6.883 14.187-14.865 13.875l-82.281-2.957c-4.408-0.156-8.572-2.34-11.122-5.927-2.638-3.587-3.486-8.165-2.211-12.417l22.583-79.181c2.13-7.649 10.112-12.078 17.755-9.901 7.65 2.177 12.146 10.138 9.935 17.795l-9.935 34.945c65.726-48.528 142.914-78.53 224.943-87.156 16.397-1.729 32.781-2.591 49.084-2.591 105.119 0 206.261 35.643 289.056 102.685 95.613 77.446 155.398 187.496 168.304 309.889l-0.007 0.010c10.363 98.036-10.354 194.761-59.867 279.734zM271.45 620.817v-345.628l237.741-75.301v345.413l-237.741 75.516zM570.48 916.451c82.118-8.64 159.217-38.614 225.030-87.163l-10.023 34.959c-2.211 7.636 2.211 15.618 9.854 17.795 7.724 2.177 15.625-2.252 17.835-9.894l22.597-79.194c1.275-4.252 0.427-8.829-2.211-12.417-2.55-3.574-6.707-5.764-11.122-5.927l-82.281-2.957c-7.982-0.346-14.601 5.927-14.947 13.875-0.251 7.948 5.947 14.621 13.922 14.906l44.664 1.6c-62.837 47.891-137.143 77.432-216.367 85.766-114.737 12.098-227.339-21.232-317.024-93.837-89.672-72.577-145.716-175.743-157.766-290.497l0.011-0.020c-9.684-91.883 9.765-182.565 56.138-262.217 3.988-6.876 1.607-15.686-5.269-19.687-2.211-1.329-4.761-1.953-7.222-1.953-4.923 0-9.765 2.563-12.397 7.161-49.499 84.979-70.222 181.697-59.86 279.716 12.905 122.393 72.603 232.443 168.304 309.889 95.606 77.432 215.777 112.987 338.135 100.095z" />
<glyph unicode="&#xe919;" glyph-name="Password-Unsee" d="M893.975 781.43c10.906-12.997 9.21-32.374-3.786-43.279l-96.89-81.308c69.039-48.682 127.836-109.062 178.858-177.735 14.511-19.787 14.511-30.781 0-49.469-69.207-91.242-149.576-168.193-251.154-223.159-62.509-32.979-128.368-52.767-198.691-53.866-73.672 1.099-141.763 21.986-205.388 57.164-11.313 6.204-22.374 12.699-33.194 19.472l-130.905-109.822c-12.997-10.906-32.374-9.21-43.279 3.786s-9.21 32.374 3.786 43.279l118.031 99.058c-60.324 46.070-112.55 101.37-158.896 162.988-14.511 18.688-14.511 31.88-1.116 49.469 70.323 93.441 154.041 173.69 260.084 227.556 62.509 31.88 129.484 51.667 200.923 49.469 69.207-2.199 132.833-23.085 193.11-56.064 4.532-2.457 9.025-4.961 13.479-7.509l111.749 93.756c12.997 10.906 32.374 9.21 43.279-3.786zM742.635 614.338l-99.234-83.284c12.812-22.977 20.279-49.452 20.623-77.68 0-86.509-71.37-158.961-158.961-158.961-38.42-0.474-73.512 12.991-100.985 35.833l-70.147-58.871c57.397-32.335 118.521-54.222 186.148-56.098 43.533 1.099 85.95 9.894 127.251 26.383 106.043 43.972 187.528 117.626 258.968 204.47 5.581 6.596 4.465 10.993-1.116 16.49-10.046 12.092-20.092 24.185-31.255 36.277-39.595 43.409-82.69 82.878-131.292 115.442zM516.731 692.374c-59.161-1.099-113.856-19.787-165.204-46.171-84.834-45.071-152.925-108.831-213.202-181.385-6.697-7.695-5.581-13.192 0-20.887 41.687-51.556 88.425-98.138 141.678-137.583l85.182 71.497c-12.266 22.691-19.494 48.766-20.165 76.609-1.081 85.428 73.533 158.961 160.043 158.961 37.198 0 71.598-13.196 98.813-35.289l82.591 69.297c-6.621 3.385-13.34 6.644-20.161 9.773-46.882 21.986-97.113 36.277-149.576 35.178zM595.072 490.501l-142.508-119.588c14.886-9.429 32.489-14.863 51.418-14.863 52.987 0 98.405 44.336 98.405 97.323 0 13.113-2.608 25.654-7.314 37.128zM505.063 551.777c-52.987 0-98.405-44.336-98.405-96.242 0-13.128 2.451-25.642 6.915-37.092l141.74 118.947c-14.748 9.119-31.985 14.388-50.25 14.388z" />
<glyph unicode="&#xe91a;" glyph-name="Order" d="M521.751 919.040c2.244 0.010 4.489-0.325 6.626-1.003l435.867-138.448c3.317-0.519 6.508-1.832 9.23-3.797 3.69-2.448 6.588-6.070 8.167-10.206 1.578-4.136 1.831-8.767 0.711-13.050v-615.057c0-4.509-1.472-9.007-4.136-12.645s-6.508-6.399-10.807-7.761l-436.308-138.197c-2.38-1.091-4.961-1.74-7.573-1.904-2.612-0.161-5.255 0.15-7.752 0.942-0.039 0.011-0.078 0-0.117 0-0.075 0-0.149 0-0.224 0.107l-439.052 139.052c-4.299 1.362-8.142 4.122-10.807 7.761-2.664 3.638-4.136 8.136-4.136 12.645v620.984c0 0.208 0.012 0.415 0.022 0.622 0 0.112 0.011 0.224 0.011 0.335 0.078 2.477 0.591 4.939 1.507 7.242s2.236 4.444 3.882 6.298c1.645 1.853 3.616 3.417 5.793 4.6s4.562 1.983 7.013 2.354l435.759 138.126c2.042 0.648 4.181 0.986 6.323 1v0zM521.897 875.173l-148.608-47.105 368.239-116.696 148.176 46.968-367.808 116.833zM302.434 805.608l-148.806-47.166 367.814-116.833 149.233 47.302-368.241 116.697zM939.539 729.222l-176.473-55.941 1.736-150.039c0.070-2.825-0.427-5.663-1.453-8.296s-2.578-5.060-4.54-7.094c-1.961-2.034-4.33-3.674-6.925-4.794s-5.412-1.719-8.238-1.752c-2.825-0.032-5.656 0.502-8.276 1.562s-5.026 2.644-7.034 4.632c-2.008 1.988-3.617 4.378-4.703 6.987s-1.649 5.435-1.644 8.26l-1.586 137.010-177.099-56.138v-575.966l396.235 125.501v576.068zM104.256 729.201v-576.047l396.234-125.501v575.689l-396.234 125.86z" />
<glyph unicode="&#xe91b;" glyph-name="Password-See" d="M532.358 755.034c69.207-2.199 132.833-23.085 193.11-56.064 99.345-53.866 179.715-129.718 246.689-219.861 14.511-19.787 14.511-30.781 0-49.469-69.207-91.242-149.576-168.193-251.154-223.159-62.509-32.979-128.368-52.767-198.691-53.866-73.672 1.099-141.763 21.986-205.388 57.164-98.229 53.866-177.482 129.718-244.457 218.761-14.511 18.688-14.511 31.88-1.116 49.469 70.323 93.441 154.041 173.69 260.084 227.556 62.509 31.88 129.484 51.667 200.923 49.469zM516.731 692.374c-59.161-1.099-113.856-19.787-165.204-46.171-84.834-45.071-152.925-108.831-213.202-181.385-6.697-7.695-5.581-13.192 0-20.887 47.998-59.362 102.694-112.129 166.32-155.002 65.858-41.774 136.181-71.455 215.434-73.653 43.533 1.099 85.95 9.894 127.251 26.383 106.043 43.972 187.528 117.626 258.968 204.471 5.581 6.596 4.465 10.993-1.116 16.49-10.046 12.092-20.092 24.185-31.255 36.277-59.161 64.859-126.135 120.923-207.621 158.3-46.882 21.986-97.113 36.277-149.576 35.178zM505.063 613.415c86.509 0 157.88-71.37 158.961-160.042 0-86.509-71.37-158.961-158.961-158.961-87.591-1.081-157.88 70.289-160.043 160.042-1.081 85.428 73.533 158.961 160.043 158.961zM505.063 551.777c-52.987 0-98.405-44.336-98.405-96.242 0-55.15 43.255-99.486 97.323-99.486 52.987 0 98.405 44.336 98.405 97.323 0 54.068-44.336 98.404-97.323 98.404z" />
<glyph unicode="&#xe91c;" glyph-name="LANGUAGE" d="M607.637 52.196c54.018 64.631 93.707 140.010 116.633 220.978h156.896c-51.725-112.352-153.027-194.036-273.672-220.978h0.143zM163.315 273.173h156.896c22.925-80.968 62.758-156.347 116.776-220.978-120.645 26.942-221.946 108.626-273.672 220.978v0zM436.986 823.468c-54.018-64.774-93.851-140.010-116.776-221.121h-156.896c51.725 112.352 153.027 194.179 273.672 221.121v0zM738.885 536.569h165.779c16.621-64.774 16.621-132.701 0-197.475h-165.779c10.746 65.347 10.746 132.128 0 197.475v0zM522.24 818.022c0.573 0.143 1.29 0.143 1.863 0 60.322-60.332 105.457-134.278 131.391-215.675h-266.507c26.078 81.111 71.212 154.914 131.534 214.959 0.573 0.43 1.146 0.717 1.719 0.717v0zM127.35 437.832c-0.143 33.247 4.155 66.494 12.466 98.738h165.636c-10.746-65.347-10.746-132.128 0-197.475h-165.636c-8.31 32.244-12.609 65.347-12.466 98.738v0zM372.365 339.094c-12.179 65.204-12.179 132.128 0 197.475h299.749c12.036-65.347 12.036-132.271 0-197.475h-299.749zM520.377 58.214v0c-60.322 60.188-105.313 133.848-131.391 214.959h266.507c-26.078-81.111-71.212-154.77-131.678-214.959-1.003-0.717-2.293-0.717-3.439 0v0zM881.165 602.347h-156.896c-22.925 81.111-62.758 156.49-116.776 221.121 120.645-26.942 221.946-108.769 273.672-221.121v0zM522.24 898.56c-254.472 0-460.8-206.217-460.8-460.728s206.328-460.872 460.8-460.872c254.472 0 460.8 206.36 460.8 460.872s-206.328 460.728-460.8 460.728v0z" />
<glyph unicode="&#xe91d;" glyph-name="Close" d="M907.793 845.085l1.292-1.292c16.687-16.687 16.687-43.742 0-60.429l-335.364-335.364 335.364-335.364c16.687-16.687 16.687-43.742 0-60.429l-1.292-1.292c-16.687-16.687-43.742-16.687-60.429 0l-335.364 335.364-335.364-335.364c-16.687-16.687-43.742-16.687-60.429 0l-1.292 1.292c-16.687 16.687-16.687 43.742 0 60.429l335.364 335.364-335.364 335.364c-16.687 16.687-16.687 43.742 0 60.429l1.292 1.292c16.687 16.687 43.742 16.687 60.429 0l335.364-335.364 335.364 335.364c16.687 16.687 43.742 16.687 60.429 0z" />
<glyph unicode="&#xe91e;" glyph-name="Chat" d="M927.698 837.12c30.512 0 55.353-24.81 55.342-55.322v0-368.858c0-30.512-24.83-55.342-55.342-55.342v0h-54.194l-0.020-79.41c0-7.958-4.431-15.236-11.475-18.884-3.1-1.586-6.454-2.378-9.808-2.378-4.309 0-8.599 1.311-12.247 3.893v0l-137.314 96.781h-25.471v-151.798c0-30.512-24.83-55.322-55.322-55.322v0h-206.764l-173.935-96.598c-3.222-1.789-6.779-2.683-10.337-2.683-3.842 0-7.674 1.037-11.068 3.12-6.535 3.974-10.428 11.16-10.205 18.803v0l2.307 77.357h-95.073c-30.512 0-55.332 24.81-55.332 55.322v0 329.147c0 30.512 24.82 55.322 55.332 55.322v0h254.493v191.528c0 30.512 24.82 55.322 55.332 55.322v0zM371.266 547.714h-254.493c-7.044 0-12.766-5.722-12.766-12.766v0-329.147c0-7.044 5.722-12.766 12.766-12.766v0h117.007c5.743 0 11.251-2.348 15.266-6.474 4.005-4.137 6.169-9.696 5.997-15.449v0l-1.84-61.857 146.035 81.098c3.161 1.748 6.728 2.683 10.337 2.683v0h212.273c7.033 0 12.766 5.722 12.766 12.766v0 151.798h-208.014c-30.512 0-55.332 24.83-55.332 55.342v0 134.773zM927.698 794.564h-501.1c-7.044 0-12.766-5.722-12.766-12.766v0-368.858c0-7.054 5.722-12.786 12.766-12.786v0h282.79c4.391 0 8.67-1.352 12.268-3.893v0l109.262-77.042 0.020 59.652c0 11.749 9.534 21.283 21.283 21.283v0h75.477c7.054 0 12.786 5.743 12.786 12.786v0 368.858c0 7.044-5.743 12.766-12.786 12.766v0zM537.964 634.981c22.289 0 40.442-18.143 40.442-40.442s-18.153-40.442-40.442-40.442c-22.289 0-40.432 18.143-40.432 40.442s18.143 40.442 40.432 40.442zM685.675 634.981c22.289 0 40.422-18.143 40.422-40.442s-18.122-40.442-40.422-40.442c-22.3 0-40.442 18.143-40.442 40.442s18.153 40.442 40.442 40.442zM833.367 634.981c22.289 0 40.442-18.143 40.442-40.442s-18.143-40.442-40.442-40.442c-22.3 0-40.442 18.143-40.442 40.442s18.153 40.442 40.442 40.442z" />
<glyph unicode="&#xe91f;" glyph-name="Delivery" d="M601.371 796.16c12.197 0 22.085-9.888 22.085-22.085v0-34.232h129.528c51.044-0.177 97.496-29.515 119.59-75.53v0l71.113-149.073 64.046-81.935c3.015-3.885 4.647-8.665 4.638-13.582v0-196.003c0-24.394-19.776-44.17-44.17-44.17v0h-85.137c-10.878-58.090-61.594-100.19-120.694-100.19s-109.816 42.1-120.694 100.19v0h-218.861c-10.878-58.090-61.594-100.19-120.694-100.19s-109.816 42.1-120.694 100.19v0h-63.273c-12.197 0-22.085 9.888-22.085 22.085s9.888 22.085 22.085 22.085v0h63.052c10.37 58.597 61.297 101.302 120.804 101.302s110.434-42.705 120.804-101.302v0h219.082c10.37 58.597 61.297 101.302 120.804 101.302s110.434-42.705 120.804-101.302v0h85.027v188.494l-55.212 70.561h-311.949c-12.197 0-22.085 9.888-22.085 22.085v0 247.13h-450.090c-12.197 0-22.085 9.888-22.085 22.085s9.888 22.085 22.085 22.085v0zM332.081 274.905c-29.43 12.215-63.321 5.486-85.853-17.046s-29.261-56.423-17.046-85.853c12.215-29.43 40.964-48.597 72.829-48.552 43.397 0.061 78.561 35.226 78.622 78.622 0.045 31.864-19.122 60.614-48.552 72.829zM792.577 274.895c-29.417 12.221-63.299 5.512-85.839-16.996s-29.297-56.382-17.117-85.816c12.18-29.434 40.896-48.629 72.75-48.629 43.44 0 78.672 35.182 78.733 78.622 0.045 31.854-19.11 60.597-48.526 72.818zM198.764 393.773c12.197 0 22.085-9.888 22.085-22.085s-9.888-22.085-22.085-22.085v0h-121.467c-12.197 0-22.085 9.888-22.085 22.085s9.888 22.085 22.085 22.085v0zM276.061 526.283c12.197 0 22.085-9.888 22.085-22.085s-9.888-22.085-22.085-22.085v0h-253.976c-12.197 0-22.085 9.888-22.085 22.085s9.888 22.085 22.085 22.085v0zM753.315 695.784h-129.859v-169.17h266.233l-56.648 118.817c-14.646 30.751-45.666 50.342-79.726 50.354v0zM331.273 658.792c12.197 0 22.085-9.888 22.085-22.085s-9.888-22.085-22.085-22.085v0h-253.976c-12.197 0-22.085 9.888-22.085 22.085s9.888 22.085 22.085 22.085v0z" />
<glyph unicode="&#xe920;" glyph-name="Gridview" d="M398.096 376.922c18.57 0.072 36.399-7.273 49.53-20.404s20.475-30.961 20.404-49.53v0-266.722c0.072-18.57-7.273-36.399-20.404-49.53s-30.961-20.475-49.53-20.404v0h-266.722c-18.57-0.072-36.399 7.273-49.53 20.404s-20.475 30.961-20.404 49.53v0 266.722c-0.072 18.57 7.273 36.399 20.404 49.53s30.961 20.475 49.53 20.404v0zM889.616 376.922c18.57 0.072 36.399-7.273 49.53-20.404s20.475-30.961 20.404-49.53v0-266.722c0.072-18.57-7.273-36.399-20.404-49.53s-30.961-20.475-49.53-20.404v0h-266.722c-18.57-0.072-36.399 7.273-49.53 20.404s-20.475 30.961-20.404 49.53v0 266.722c-0.072 18.57 7.273 36.399 20.404 49.53s30.961 20.475 49.53 20.404v0zM398.096 322.71h-266.722c-8.683 0-15.721-7.039-15.721-15.721v0-266.722c0-8.683 7.039-15.721 15.721-15.721v0h266.722c8.683 0 15.721 7.039 15.721 15.721v0 266.722c0 8.683-7.039 15.721-15.721 15.721v0zM889.616 322.71h-266.722c-8.683 0-15.721-7.039-15.721-15.721v0-266.722c0-8.683 7.039-15.721 15.721-15.721v0h266.722c8.683 0 15.721 7.039 15.721 15.721v0 266.722c0 8.683-7.039 15.721-15.721 15.721v0zM398.096 919.039c18.57 0.072 36.399-7.273 49.53-20.404s20.475-30.961 20.404-49.53v0-266.722c0.072-18.57-7.273-36.399-20.404-49.53s-30.961-20.475-49.53-20.404v0h-266.722c-18.57-0.072-36.399 7.273-49.53 20.404s-20.475 30.961-20.404 49.53v0 266.722c-0.072 18.57 7.273 36.399 20.404 49.53s30.961 20.475 49.53 20.404v0zM889.616 919.039c18.57 0.072 36.399-7.273 49.53-20.404s20.475-30.961 20.404-49.53v0-266.722c0.072-18.57-7.273-36.399-20.404-49.53s-30.961-20.475-49.53-20.404v0h-266.722c-18.57-0.072-36.399 7.273-49.53 20.404s-20.475 30.961-20.404 49.53v0 266.722c-0.072 18.57 7.273 36.399 20.404 49.53s30.961 20.475 49.53 20.404v0zM398.096 864.827h-266.722c-8.683 0-15.721-7.039-15.721-15.721v0-266.722c0-8.683 7.039-15.721 15.721-15.721v0h266.722c8.683 0 15.721 7.039 15.721 15.721v0 266.722c0 8.683-7.039 15.721-15.721 15.721v0zM889.616 864.827h-266.722c-8.683 0-15.721-7.039-15.721-15.721v0-266.722c0-8.683 7.039-15.721 15.721-15.721v0h266.722c8.683 0 15.721 7.039 15.721 15.721v0 266.722c0 8.683-7.039 15.721-15.721 15.721v0z" />
<glyph unicode="&#xe921;" glyph-name="Cart" d="M402.845 239.165c23.683-7.895 44.401-25.653 55.255-48.351 11.839-23.683 13.814-51.311 4.935-75.979-6.91-18.749-19.733-35.522-35.522-46.376-14.798-10.854-33.547-16.773-52.296-17.757h-7.895c-26.643 0.984-52.296 13.814-69.069 33.547-18.749 21.708-26.643 51.311-21.708 78.939 3.951 28.618 21.708 54.271 46.376 68.085 23.684 13.811 54.273 16.771 79.924 7.892zM790.627 230.288c21.708-13.814 38.482-36.507 43.417-62.165 5.919-27.628-0.984-58.215-18.749-79.923-16.773-21.708-44.401-35.522-72.029-37.497h-6.91c-12.829 0.984-25.653 2.96-36.507 8.879-20.725 9.87-38.482 26.643-48.351 48.351-8.879 18.749-10.854 40.457-5.919 61.175 1.975 14.805 8.879 28.618 18.749 40.457 15.788 19.73 40.456 32.559 66.109 34.536 20.725 1.975 42.425-2.96 60.19-13.814zM361.403 197.726c-12.829-2.959-24.667-10.853-31.578-20.724s-9.87-22.693-7.895-35.522c1.975-11.839 6.91-22.693 15.789-30.587 7.895-7.895 18.749-12.829 29.603-13.814 11.839-0.984 24.668 1.975 34.539 8.879 9.87 6.91 16.773 16.773 19.733 28.611s1.975 24.668-2.96 35.522c-4.935 9.87-12.829 17.757-22.693 23.683-10.854 4.935-23.683 5.926-34.539 3.951zM728.463 197.726c-19.733-3.943-36.508-20.724-39.466-40.457-2.96-15.789 1.975-32.562 12.829-44.401 9.87-10.854 25.653-16.773 41.442-15.789 12.829 0.984 25.653 6.91 33.547 16.773 9.87 10.854 14.798 25.653 12.829 39.465-0.984 13.814-8.879 27.628-20.725 35.522-11.839 7.895-26.643 11.845-40.457 8.886zM198.594 837.12c9.87 0 19.733-7.895 21.708-17.757 5.919-26.643 10.854-54.271 16.773-80.915h640.084c-14.93-165.767-22.723-253.585-23.379-263.456-0.984-8.879-0.984-17.757-2.96-25.653-4.935-20.725-16.773-40.457-33.547-53.279-17.757-12.829-39.465-18.749-62.165-18.749h-441.064c5.919-11.839 13.814-23.683 24.668-32.562 8.879-7.895 18.749-13.814 29.603-16.773 7.895-2.96 16.773-3.944 25.653-3.944h396.661c5.919 0 11.839 0.984 17.757-0.984 10.854-1.975 18.749-12.829 17.757-24.668-0.984-11.839-10.854-21.708-22.693-20.725h-388.768c-15.789 0-32.562-0.984-48.351 2.96-25.653 4.935-50.321 19.733-68.085 39.465-19.733 21.708-32.562 48.351-39.465 76.964l-79.923 393.701h-94.729c-11.839 0-21.708 9.87-22.693 21.708v2.96c0.984 11.839 10.854 21.708 22.693 21.708h114.461zM826.146 691.081h-579.212c17.763-88.801 36.513-178.596 54.277-267.401h455.865c11.839 0 23.683 1.975 33.547 8.879 10.854 7.895 16.773 19.733 17.757 32.562 0.471 6.136 5.232 50.188 9.748 98.263l1.222 13.186c4.434 48.526 8.211 97.995 6.796 114.512z" />
<glyph unicode="&#xe922;" glyph-name="Filter" d="M953.627 487.177h-63.924c-13.302 51.276-59.58 87.080-112.553 87.080s-99.251-35.804-112.553-87.080h-573.745c-16.244 0-29.413-13.169-29.413-29.413s13.169-29.413 29.413-29.413h573.745c13.302-51.276 59.58-87.080 112.553-87.080s99.251 35.804 112.553 87.080h63.924c16.244 0 29.413 13.169 29.413 29.413s-13.169 29.413-29.413 29.413zM777.151 400.115c-23.317 0-44.338 14.046-53.261 35.588s-3.991 46.338 12.497 62.825c16.488 16.488 41.283 21.42 62.825 12.497s35.588-29.944 35.588-53.261c0-31.839-25.81-57.649-57.649-57.649zM953.627 204.030h-318.834c-13.302 51.276-59.58 87.080-112.553 87.080s-99.251-35.804-112.553-87.080h-318.834c-16.244 0-29.413-13.169-29.413-29.413s13.169-29.413 29.413-29.413h318.834c13.302-51.276 59.58-87.080 112.553-87.080s99.251 35.804 112.553 87.080h318.834c16.244 0 29.413 13.169 29.413 29.413s-13.169 29.413-29.413 29.413zM522.24 116.772c-23.317 0-44.338 14.046-53.261 35.588s-3.991 46.338 12.497 62.825c16.488 16.488 41.283 21.42 62.825 12.497s35.588-29.944 35.588-53.261c0-31.839-25.81-57.649-57.649-57.649zM90.853 711.694h63.924c13.302-51.276 59.58-87.080 112.553-87.080s99.251 35.804 112.553 87.080h573.745c16.244 0 29.413 13.169 29.413 29.413s-13.169 29.413-29.413 29.413h-573.745c-13.302 51.276-59.58 87.080-112.553 87.080s-99.251-35.804-112.553-87.080h-63.924c-16.244 0-29.413-13.169-29.413-29.413s13.169-29.413 29.413-29.413v0zM267.329 798.756c31.839 0 57.649-25.81 57.649-57.649s-25.81-57.649-57.649-57.649c-31.839 0-57.649 25.81-57.649 57.649s25.81 57.649 57.649 57.649z" />
<glyph unicode="&#xe923;" glyph-name="Contact" d="M352.483 170.269c6.886-5.761 165.253-141.72 346.572-169.372 4.59 0 20.657-3.457 43.608-3.457 48.199 0 125.087 12.674 185.91 82.958 8.033 5.761 28.69 26.5 33.28 59.914 3.443 27.653-5.738 54.153-26.395 81.806-1.148 1.152-1.148 1.152-2.295 2.304l-134.268 131.35c-16.066 17.283-59.675 41.479-112.464 8.065-1.148-1.152-2.295-2.304-3.443-3.457l-66.56-65.675c-47.051 27.653-200.828 125.589-274.274 276.526l49.346 49.544c5.738 4.609 33.28 32.261 34.428 71.436 1.148 26.5-10.328 51.849-33.28 76.045l-133.12 131.35c-1.148 1.152-2.295 1.152-2.295 2.304-21.804 14.978-74.593 33.414-122.792-9.218-4.59-4.609-123.94-107.154-86.069-279.983 2.295-23.044 22.952-195.873 304.111-442.442zM164.278 858.127c29.837 25.348 58.527 11.522 65.413 6.913l130.825-130.198c13.771-13.826 19.509-27.653 19.509-41.479-1.148-23.044-19.509-40.327-19.509-40.327s-1.148-1.152-1.148-1.152l-60.822-61.066c-6.886-6.913-9.181-17.283-4.59-25.348 89.512-201.634 306.406-315.701 315.587-320.309s19.509-3.457 26.395 3.457l76.888 76.045c30.985 18.435 49.346 2.304 52.789-1.152 0 0 1.148-1.152 1.148-1.152l133.12-130.198c12.623-16.131 18.361-31.109 16.066-44.935-2.295-18.435-17.214-31.109-17.214-31.109-1.148-1.152-2.295-2.304-3.443-3.457-74.593-88.719-182.467-66.827-187.057-65.675 0 0-1.148 0-1.148 0-168.696 24.196-323.62 156.698-324.768 157.85-145.744 129.046-216.894 233.895-250.175 299.57-35.575 70.284-37.87 111.763-37.87 112.915s0 3.457 0 4.609c-33.28 146.328 65.413 232.743 70.003 236.199z" />
<glyph unicode="&#xe924;" glyph-name="gift" d="M624 493.44v165.12h320.64v-165.12h-320.64zM869.76 15.36h-245.76v439.68h243.84v-439.68h1.92zM456.96 15.36v637.44h128.64v-637.44h-128.64zM99.84 493.44v165.12h320.64v-165.12h-320.64zM420.48 15.36h-245.76v439.68h243.84v-439.68h1.92zM336 839.040c28.8 28.8 76.8 28.8 105.6 0 26.88-26.88 61.44-96 63.36-136.32h-122.88c-19.2 11.52-36.48 23.040-46.080 32.64-28.8 26.88-28.8 74.88 0 103.68v0zM606.72 839.040c28.8 28.8 76.8 28.8 105.6 0s28.8-76.8 0-105.6c-9.6-9.6-26.88-21.12-46.080-32.64h-122.88c1.92 42.24 36.48 111.36 63.36 138.24v0zM963.84 696.96h-236.16c3.84 3.84 7.68 5.76 11.52 9.6 44.16 44.16 44.16 115.2 0 159.36-21.12 21.12-49.92 32.64-80.64 32.64s-57.6-11.52-78.72-32.64c-17.28-17.28-40.32-51.84-55.68-90.24-15.36 36.48-38.4 72.96-55.68 90.24-21.12 21.12-49.92 32.64-80.64 32.64s-57.6-11.52-78.72-32.64c-44.16-44.16-44.16-115.2 0-159.36 3.84-3.84 5.76-5.76 11.52-9.6h-240c-11.52 0-19.2-7.68-19.2-19.2v-203.52c0-11.52 7.68-19.2 19.2-19.2h55.68v-458.88c0-11.52 7.68-19.2 19.2-19.2h731.52c11.52 0 19.2 7.68 19.2 19.2v458.88h57.6c11.52 0 19.2 7.68 19.2 19.2v203.52c0 11.52-7.68 19.2-19.2 19.2v0z" />
<glyph unicode="&#xe925;" glyph-name="Listview" d="M398.096 376.922c18.57 0.072 36.399-7.273 49.53-20.404s20.475-30.961 20.404-49.53v0-266.722c0.072-18.57-7.273-36.399-20.404-49.53s-30.961-20.475-49.53-20.404v0h-266.722c-18.57-0.072-36.399 7.273-49.53 20.404s-20.475 30.961-20.404 49.53v0 266.722c-0.072 18.57 7.273 36.399 20.404 49.53s30.961 20.475 49.53 20.404v0zM398.096 322.71h-266.722c-8.683 0-15.721-7.039-15.721-15.721v0-266.722c0-8.683 7.039-15.721 15.721-15.721v0h266.722c8.683 0 15.721 7.039 15.721 15.721v0 266.722c0 8.683-7.039 15.721-15.721 15.721v0zM955.934 139.294c14.97 0 27.106-12.136 27.106-27.106s-12.136-27.106-27.106-27.106h-406.588c-14.97 0-27.106 12.136-27.106 27.106s12.136 27.106 27.106 27.106h406.588zM955.934 261.27c14.97 0 27.106-12.136 27.106-27.106s-12.136-27.106-27.106-27.106h-406.588c-14.97 0-27.106 12.136-27.106 27.106s12.136 27.106 27.106 27.106h406.588zM398.096 919.039c18.57 0.072 36.399-7.273 49.53-20.404s20.475-30.961 20.404-49.53v0-266.722c0.072-18.57-7.273-36.399-20.404-49.53s-30.961-20.475-49.53-20.404v0h-266.722c-18.57-0.072-36.399 7.273-49.53 20.404s-20.475 30.961-20.404 49.53v0 266.722c-0.072 18.57 7.273 36.399 20.404 49.53s30.961 20.475 49.53 20.404v0zM398.096 864.827h-266.722c-8.683 0-15.721-7.039-15.721-15.721v0-266.722c0-8.683 7.039-15.721 15.721-15.721v0h266.722c8.683 0 15.721 7.039 15.721 15.721v0 266.722c0 8.683-7.039 15.721-15.721 15.721v0zM955.934 681.411c14.97 0 27.106-12.136 27.106-27.106s-12.136-27.106-27.106-27.106h-406.588c-14.97 0-27.106 12.136-27.106 27.106s12.136 27.106 27.106 27.106h406.588zM955.934 803.387c14.97 0 27.106-12.136 27.106-27.106s-12.136-27.106-27.106-27.106h-406.588c-14.97 0-27.106 12.136-27.106 27.106s12.136 27.106 27.106 27.106h406.588z" />
<glyph unicode="&#xe926;" glyph-name="Arrow-Up" d="M518.387 673.118c-9.462-0.821-18.416-4.622-25.571-10.862l-414.805-358.75c-9.439-7.664-15.359-18.839-16.407-30.952-1.040-12.113 2.87-24.134 10.854-33.298 7.984-9.173 19.347-14.71 31.491-15.343s24.023 3.691 32.914 11.98l385.376 333.185 385.376-333.185c8.891-8.289 20.77-12.614 32.914-11.98s23.507 6.17 31.491 15.343c7.984 9.165 11.894 21.185 10.854 33.298-1.048 12.113-6.968 23.289-16.407 30.952l-414.805 358.75c-9.165 7.977-21.177 11.894-33.282 10.862h0.006z" />
<glyph unicode="&#xe927;" glyph-name="Alert" d="M501.76 919.040c254.493 0 460.8-206.307 460.8-460.8s-206.307-460.8-460.8-460.8c-254.493 0-460.8 206.307-460.8 460.8s206.307 460.8 460.8 460.8zM501.76 863.744c-223.954 0-405.504-181.55-405.504-405.504s181.55-405.504 405.504-405.504c223.954 0 405.504 181.55 405.504 405.504s-181.55 405.504-405.504 405.504zM501.76 273.92c20.359 0 36.864-16.505 36.864-36.864s-16.505-36.864-36.864-36.864c-20.359 0-36.864 16.505-36.864 36.864s16.505 36.864 36.864 36.864zM501.76 716.288c20.359 0 36.864-16.505 36.864-36.864v-294.912c0-20.359-16.505-36.864-36.864-36.864s-36.864 16.505-36.864 36.864v294.912c0 20.359 16.505 36.864 36.864 36.864z" />
<glyph unicode="&#xe928;" glyph-name="Arrow-Down" d="M518.387 224.013c-9.462 0.821-18.416 4.622-25.571 10.862l-414.805 358.75c-9.439 7.664-15.359 18.839-16.407 30.952-1.040 12.113 2.87 24.134 10.854 33.298 7.984 9.173 19.347 14.71 31.491 15.343s24.023-3.691 32.914-11.98l385.376-333.185 385.376 333.185c8.891 8.289 20.77 12.614 32.914 11.98s23.507-6.17 31.491-15.343c7.984-9.165 11.894-21.185 10.854-33.298-1.048-12.113-6.968-23.289-16.407-30.952l-414.805-358.75c-9.165-7.977-21.177-11.894-33.282-10.862h0.006z" />
<glyph unicode="&#xe929;" glyph-name="Account" d="M731.924 366.868c110.411 0 199.916-89.506 199.916-199.916v-189.991h-829.44v183.328c0 114.091 92.489 206.58 206.58 206.58h422.944zM731.924 324.332h-422.944c-90.599 0-164.045-73.445-164.045-164.045v-140.792h744.369v147.456c0 86.919-70.462 157.381-157.381 157.381zM517.12 898.56c119.416 0 216.222-96.806 216.222-216.222s-96.806-216.222-216.222-216.222c-119.416 0-216.222 96.806-216.222 216.222s96.806 216.222 216.222 216.222zM517.12 856.025c-95.924 0-173.686-77.762-173.686-173.686s77.762-173.686 173.686-173.686c95.924 0 173.686 77.762 173.686 173.686s-77.762 173.686-173.686 173.686z" />
<glyph unicode="&#xe92a;" glyph-name="Arrows" d="M746.792 452.418c-0.821 9.462-4.622 18.416-10.862 25.571l-358.75 414.805c-7.664 9.439-18.839 15.359-30.952 16.407-12.113 1.040-24.134-2.87-33.298-10.854-9.173-7.984-14.71-19.347-15.343-31.491s3.691-24.023 11.98-32.914l333.185-385.376-333.185-385.376c-8.289-8.891-12.614-20.77-11.98-32.914s6.17-23.507 15.343-31.491c9.165-7.984 21.185-11.894 33.298-10.854 12.113 1.048 23.289 6.968 30.952 16.407l358.75 414.805c7.977 9.165 11.894 21.177 10.862 33.282v-0.006z" />
<glyph unicode="&#xe92b;" glyph-name="Arrows-Left" d="M297.688 452.418c0.821 9.462 4.622 18.416 10.862 25.571l358.75 414.805c7.664 9.439 18.839 15.359 30.952 16.407 12.113 1.040 24.134-2.87 33.298-10.854 9.173-7.984 14.71-19.347 15.343-31.491s-3.691-24.023-11.98-32.914l-333.185-385.376 333.185-385.376c8.289-8.891 12.614-20.77 11.98-32.914s-6.17-23.507-15.343-31.491c-9.165-7.984-21.185-11.894-33.298-10.854-12.113 1.048-23.289 6.968-30.952 16.407l-358.75 414.805c-7.977 9.165-11.894 21.177-10.862 33.282v-0.006z" />
<glyph unicode="&#xe92c;" glyph-name="Cart-Error" d="M402.845 190.335c23.683-7.895 44.401-25.653 55.255-48.351 11.839-23.683 13.814-51.311 4.935-75.979-6.91-18.749-19.733-35.522-35.522-46.376-14.798-10.854-33.547-16.773-52.296-17.757h-7.895c-26.643 0.984-52.296 13.814-69.069 33.547-18.749 21.708-26.643 51.311-21.708 78.939 3.951 28.618 21.708 54.271 46.376 68.085 23.684 13.811 54.273 16.771 79.924 7.892zM790.627 181.458c21.708-13.814 38.482-36.507 43.417-62.165 5.919-27.628-0.984-58.215-18.749-79.923-16.773-21.708-44.401-35.522-72.029-37.497h-6.91c-12.829 0.984-25.653 2.96-36.507 8.879-20.725 9.87-38.482 26.643-48.351 48.351-8.879 18.749-10.854 40.457-5.919 61.175 1.975 14.805 8.879 28.618 18.749 40.457 15.788 19.73 40.456 32.559 66.109 34.536 20.725 1.975 42.425-2.96 60.19-13.814zM361.403 148.896c-12.829-2.959-24.667-10.853-31.578-20.724s-9.87-22.693-7.895-35.522c1.975-11.839 6.91-22.693 15.789-30.587 7.895-7.895 18.749-12.829 29.603-13.814 11.839-0.984 24.668 1.975 34.539 8.879 9.87 6.91 16.773 16.773 19.733 28.611s1.975 24.668-2.96 35.522c-4.935 9.87-12.829 17.757-22.693 23.683-10.854 4.935-23.683 5.926-34.539 3.951zM728.463 148.896c-19.733-3.943-36.508-20.724-39.466-40.457-2.96-15.789 1.975-32.562 12.829-44.401 9.87-10.854 25.653-16.773 41.442-15.789 12.829 0.984 25.653 6.91 33.547 16.773 9.87 10.854 14.798 25.653 12.829 39.465-0.984 13.814-8.879 27.628-20.725 35.522-11.839 7.895-26.643 11.845-40.457 8.886zM775.827 878.080c30.587-0.984 61.175-7.895 87.818-21.708 42.425-20.725 76.964-55.255 97.687-97.687 13.814-28.611 21.708-59.207 21.708-90.778v-8.879c-0.984-32.562-8.879-65.125-24.668-93.737-21.708-41.442-58.215-75.979-100.647-95.712-0.984-14.798-2.96-28.611-3.944-43.417-0.984-8.879-0.984-17.757-2.96-25.653-4.935-20.725-16.773-40.457-33.547-53.279-17.757-12.829-39.465-18.749-62.165-18.749h-441.064c5.919-11.839 13.814-23.683 24.668-32.562 8.879-7.895 18.749-13.814 29.603-16.773 7.895-2.96 16.773-3.944 25.653-3.944h396.661c5.919 0 11.839 0.984 17.757-0.984 10.854-1.975 18.749-12.829 17.757-24.668-0.984-11.839-10.854-21.708-22.693-20.725h-388.768c-15.789 0-32.562-0.984-48.351 2.96-25.653 4.935-50.321 19.733-68.085 39.465-19.733 21.708-32.562 48.351-39.465 76.964l-79.923 393.701h-94.729c-11.839 0-21.708 9.87-22.693 21.708v2.96c0.984 11.839 10.854 21.708 22.693 21.708h114.461c9.87 0 19.733-7.895 21.708-17.757 5.919-26.643 10.854-54.271 16.773-80.915h320.684c1.975 21.708 7.895 42.425 16.773 62.165 18.749 43.417 52.296 79.923 94.729 102.615 28.611 13.807 62.158 22.686 95.712 23.681h10.854zM556.764 642.244l-309.83 0.007c17.763-88.801 36.513-178.596 54.277-267.401h455.865c11.839 0 23.683 1.975 33.547 8.879 10.854 7.895 16.773 19.733 17.757 32.562s1.975 24.668 2.96 37.497c-26.643-4.935-54.271-4.935-80.915 0s-51.311 14.798-74.004 28.611c-26.643 16.773-49.336 38.482-66.11 64.133-18.749 28.611-30.587 61.175-33.547 95.712zM756.088 831.701c-36.507-2.96-72.029-17.758-98.672-42.426-21.708-19.733-38.482-44.401-47.361-72.029-10.854-34.539-10.854-72.029 0.984-106.566 8.879-26.643 25.653-51.311 46.376-71.044 18.749-16.773 42.425-29.603 67.093-36.507 30.587-8.879 63.15-7.895 93.737 0.984 20.725 5.919 40.457 16.773 57.23 30.587 30.587 24.668 51.311 60.19 59.207 98.672 5.919 30.587 2.96 62.165-7.895 90.778-14.798 39.465-44.401 72.029-81.898 91.761-26.636 11.839-58.215 17.764-88.801 15.789zM770.048 579.73c13.573 0 24.576-11.003 24.576-24.576s-11.003-24.576-24.576-24.576c-13.573 0-24.576 11.003-24.576 24.576s11.003 24.576 24.576 24.576zM770.048 783.799c13.573 0 24.576-11.003 24.576-24.576v-119.077c0-13.573-11.003-24.576-24.576-24.576s-24.576 11.003-24.576 24.576v119.077c0 13.573 11.003 24.576 24.576 24.576z" />
<glyph unicode="&#xe92d;" glyph-name="Car" d="M287.171 714.228l-0.923-0.045c-1.583-0.115-3.41-0.461-5.715-1.498l-1.442-0.709c-13.778-7.326-43.425-38.352-127.877-169.759v0h-102.175c-8.554 0-15.812-6.139-17.108-14.395v0l-31.929-203.354c-0.214-29.129 21.905-50.807 49.037-50.807v0h68.045c14.257-45.176 56.769-78.242 107.489-78.242s93.232 33.067 107.532 78.2v0h343.636c14.257-45.176 56.812-78.242 107.489-78.242s93.189 33.109 107.489 78.242v0h84.030c27.131 0 49.251 21.678 49.251 48.266v0l-16.201 96.575c-17.368 87.345-163.61 116.601-198.863 122.402-60.009 80.486-136.435 173.378-169.356 173.378v0l-352.409-0.012zM224.572 383.107c43.289 0 78.457-34.464 78.457-76.887s-35.167-76.887-78.457-76.887c-43.289 0-78.457 34.464-78.457 76.887s35.167 76.887 78.457 76.887zM783.23 383.107c43.289 0 78.457-34.464 78.457-76.887s-35.167-76.887-78.457-76.887c-43.289 0-78.457 34.464-78.457 76.887s35.167 76.887 78.457 76.887zM783.23 337.72c-17.728 0-32.1-14.084-32.1-31.458s14.372-31.458 32.1-31.458c17.728 0 32.1 14.084 32.1 31.458s-14.372 31.458-32.1 31.458zM224.572 337.72c-17.728 0-32.1-14.084-32.1-31.458s14.372-31.458 32.1-31.458c17.728 0 32.1 14.084 32.1 31.458s-14.372 31.458-32.1 31.458zM891.583 336.196h95.176l2.895-17.063c-0.259-5.165-6.783-11.601-14.862-11.601v0h-78.629c-0.086 9.992-1.944 19.476-4.58 28.663v0zM63.857 508.304h734.019c45.882-6.436 163.912-35.565 175.879-95.813v0l7.215-42.381h-105.674c-20.478 28.282-54.047 46.912-92.066 46.912-61.91 0-112.198-48.986-112.933-109.446v0h-332.793c-0.734 60.502-51.023 109.488-112.933 109.488s-112.198-48.986-112.933-109.488v0h-62.601c-8.122 0-14.646 6.393-14.646 14.353v0l29.464 186.376zM511.915 495.221c-9.505 0-17.281-7.621-17.281-16.936s7.733-16.936 17.281-16.936v0h47.869c9.548 0 17.281 7.621 17.281 16.936s-7.733 16.936-17.281 16.936v0zM224.615 495.221c-9.505 0-17.281-7.621-17.281-16.936s7.733-16.936 17.281-16.936v0h47.869c9.505 0 17.281 7.621 17.281 16.936s-7.733 16.936-17.281 16.936v0zM292.53 680.327h158.857v-138.152h-259.175l7.497 11.388c38.875 58.758 79.306 115.309 92.82 126.763v0zM485.993 680.327h153.587c14.357-4.182 64.789-61.034 113.205-122.671l8.044-10.309 3.996-5.172h-278.832v138.152z" />
<glyph unicode="&#xe92e;" glyph-name="Payment" d="M933.669 775.68c13.091 0 25.655-5.203 34.912-14.459s14.459-21.82 14.459-34.912v0-460.801c0-13.091-5.203-25.655-14.459-34.912s-21.82-14.459-34.912-14.459v0h-65.829v-49.372c0-13.091-5.203-25.655-14.459-34.912s-21.82-14.459-34.912-14.459v0h-707.659c-13.091 0-25.655 5.203-34.912 14.459s-14.459 21.82-14.459 34.912v0 460.801c0 13.091 5.203 25.655 14.459 34.912s21.82 14.459 34.912 14.459v0h65.829v49.372c0 13.091 5.203 25.655 14.459 34.912s21.82 14.459 34.912 14.459v0zM834.926 446.536h-740.574v-279.772c0-9.088 7.369-16.457 16.457-16.457v0h707.659c4.364 0 8.552 1.734 11.638 4.82s4.82 7.274 4.82 11.638v0 279.772zM719.726 347.793c29.395 0 56.565-15.686 71.259-41.143 14.701-25.457 14.701-56.829 0-82.286-14.695-25.457-41.863-41.143-71.259-41.143-14.503 0.044-28.727 4.026-41.143 11.52-12.417-7.494-26.64-11.476-41.143-11.52-29.395 0-56.565 15.686-71.259 41.143-14.701 25.457-14.701 56.829 0 82.286 14.695 25.457 41.863 41.143 71.259 41.143 14.503-0.044 28.727-4.026 41.143-11.52 12.417 7.494 26.64 11.476 41.143 11.52zM637.439 314.878c-13.091 0-25.655-5.203-34.912-14.459s-14.459-21.82-14.459-34.912c0-13.094 5.203-25.658 14.459-34.916s21.82-14.459 34.912-14.459c5.033 0.066 10.029 0.896 14.811 2.469-9.558 13.777-14.679 30.136-14.679 46.904s5.121 33.128 14.679 46.904c-4.783 1.572-9.779 2.402-14.811 2.469zM719.726 314.88c-5.033-0.066-10.029-0.896-14.811-2.469 9.558-13.777 14.679-30.136 14.679-46.904s-5.121-33.128-14.679-46.904c4.783-1.572 9.779-2.402 14.811-2.469 17.64 0.002 33.935 9.413 42.759 24.688 8.816 15.274 8.816 34.097 0 49.372-8.823 15.274-25.119 24.686-42.759 24.686zM678.583 292.662c-5.312-8.061-8.14-17.5-8.14-27.155s2.829-19.096 8.14-27.155c5.312 8.061 8.14 17.5 8.14 27.155s-2.829 19.096-8.14 27.155zM933.67 742.765h-707.659c-9.088 0-16.457-7.369-16.457-16.457v0-49.372h608.916c13.091 0 25.655-5.203 34.912-14.459s14.459-21.82 14.459-34.912v0-378.515h65.829c4.364 0 8.552 1.734 11.638 4.82s4.821 7.274 4.821 11.638v0 460.8c0 4.364-1.734 8.552-4.82 11.638s-7.274 4.82-11.638 4.82v0zM834.926 545.279h-740.574v-65.829h740.574v65.829zM818.469 644.022h-707.659c-9.088 0-16.457-7.369-16.457-16.457v0-49.372h740.574v49.372c0 4.364-1.734 8.552-4.82 11.638s-7.274 4.82-11.638 4.82v0z" />
<glyph unicode="&#xe92f;" glyph-name="Undo" d="M205.78 654.896c-5.216-5.235-3.729-9.477 3.673-9.477h497.142c152.688 0 276.444-123.757 276.444-276.482 0-152.758-123.611-276.482-276.444-276.482h-250.014c-21.893 0-39.655 17.541-39.655 39.508 0 21.802 17.669 39.489 39.655 39.489h250.014c109.194 0 197.446 88.327 197.446 197.484 0 109.082-88.383 197.484-197.446 197.484h-497.142c-7.255 0-9.055-4.078-3.673-9.459l94.28-94.28c15.41-15.41 15.52-40.316-0.018-55.836-15.41-15.428-40.445-15.41-55.761-0.092l-171.331 171.331c-15.373 15.373-15.318 40.371 0 55.672l171.331 171.345c15.373 15.373 40.242 15.428 55.761-0.092 15.428-15.428 15.318-40.555 0.018-55.855l-94.28-94.258z" />
<glyph unicode="&#xe930;" glyph-name="Edit" d="M858.19 757.811c0-9.339-3.645-18.125-10.24-24.74l-8.745-8.724-49.48 49.48 8.724 8.724c13.189 13.189 36.311 13.189 49.48 0 6.615-6.615 10.26-15.401 10.26-24.74v0zM792.756 677.857l-241.705-241.705-65.966-16.486 16.507 65.946 241.684 241.705 49.48-49.459zM552.481 825.088v-65.659h-326.799c-32.297 0-57.59-24.822-57.59-56.484v0-542.7c0-31.826 26.378-58.716 57.59-58.716v0h542.679c30.433 0 56.279 25.559 57.549 56.32v0 328.090h65.7v-325.693c0-68.588-55.296-124.396-123.29-124.396v0h-542.638c-67.973 0-123.29 55.808-123.29 124.396v0 542.659c0 67.379 55.316 122.184 123.29 122.184v0h326.799zM823.21 857.61c27.054 0 53.002-10.445 71.188-28.631 19.026-19.005 29.491-44.278 29.491-71.168s-10.465-52.163-29.491-71.188v0l-303.35-303.35c-4.26-4.26-9.544-7.25-15.319-8.643v0l-127.836-31.969c-2.519-0.655-5.222-0.983-7.967-0.983-8.643 0-17.101 3.502-23.204 9.605-8.11 8.172-11.407 20.111-8.643 31.212v0l31.949 127.877c1.413 5.734 4.403 11.018 8.622 15.258v0l303.35 303.329c18.207 18.207 44.155 28.652 71.209 28.652z" />
<glyph unicode="&#xe931;" glyph-name="Add" d="M930.532 450.64v-1.37c0-17.699-14.348-32.047-32.047-32.047h-355.707v-355.707c0-17.699-14.348-32.047-32.047-32.047h-1.37c-17.699 0-32.047 14.348-32.047 32.047v355.707h-355.707c-17.699 0-32.047 14.348-32.047 32.047v1.37c0 17.699 14.348 32.047 32.047 32.047h355.707v355.707c0 17.699 14.348 32.047 32.047 32.047h1.37c17.699 0 32.047-14.348 32.047-32.047v-355.707h355.707c17.699 0 32.047-14.348 32.047-32.047z" />
<glyph unicode="&#xe932;" glyph-name="Wallet" d="M163.842 816.64c-45.029 0-81.922-36.893-81.922-81.922v-583.682c0-39.357 32.322-71.678 71.678-71.678h716.803c39.357 0 71.678 32.322 71.678 71.678v471.042c0 39.357-32.322 71.678-71.678 71.678h-51.2v102.4c0 10.722-9.757 20.484-20.478 20.484h-634.881zM163.842 775.683h614.403v-81.922h-614.403c-23.044 0-40.957 17.914-40.957 40.957s17.914 40.957 40.957 40.957v0.009zM122.88 664.005c12.077-7.029 26.070-11.2 40.962-11.2 230.657 0.207 508.327 0 706.563 0 17.372 0 30.722-13.35 30.722-30.722v-102.4h-296.961c-28.007 0-51.2-23.194-51.2-51.2v-163.844c0-28.007 23.194-51.2 51.2-51.2h296.961v-102.4c0-17.372-13.35-30.722-30.722-30.722h-716.803c-17.372 0-30.722 13.35-30.722 30.722v512.968zM604.168 478.733h296.961v-184.321h-296.961c-6.029 0-10.243 4.214-10.243 10.243v163.844c0 6.029 4.214 10.243 10.243 10.243v-0.010zM706.568 438.089c-28.036 0-51.2-23.164-51.2-51.2s23.164-51.2 51.2-51.2c28.036 0 51.2 23.164 51.2 51.2s-23.164 51.2-51.2 51.2zM706.568 397.133c5.9 0 10.243-4.343 10.243-10.243s-4.343-10.243-10.243-10.243c-5.9 0-10.243 4.343-10.243 10.243s4.343 10.243 10.243 10.243z" />
<glyph unicode="&#xe933;" glyph-name="Cash" d="M851.413 795.216c15.515 2.793 31.333-0.662 44.303-9.687 12.964-9.033 21.647-22.588 24.432-38.172v0l61.942-345.511c2.793-15.584-0.622-31.302-9.687-44.303-8.013-11.569-19.732-19.412-33.115-23.038v0-114.72l0.008-61.282c0-32.631-26.564-59.227-59.227-59.227v0h-753.011c-32.631 0-59.227 26.564-59.227 59.227v0 61.282l-0.008 289.739v53.679l-5.439 30.36c-2.785 15.577 0.63 31.302 9.656 44.303 9.065 12.97 22.626 21.646 38.172 24.47v0zM904.425 165.925c-7.461-3.416-15.654-5.4-24.369-5.4v0h-753.011c-8.714 0-16.907 2.015-24.369 5.4v0-7.423c0-13.46 10.916-24.369 24.369-24.369v0h753.011c13.421 0 24.369 10.908 24.369 24.369v0zM904.427 275.685c-40.258-7.384-71.599-39.666-77.871-80.275v0h53.508c13.46 0 24.369 10.916 24.369 24.369v0zM102.696 368.795v-149.017c0-13.46 10.916-24.369 24.369-24.369v0h664.632c6.77 59.786 53.299 107.156 112.729 115.093v0 17.219l-711.341-127.542c-3.525-0.591-6.972-0.903-10.426-0.903-28.197 0-53.228 20.152-58.316 48.769v0l-21.646 120.75zM149.274 306.543l9.376-52.356c2.372-13.212 15.305-22.175 28.307-19.662v0l52.357 9.376c-14.053 37.441-50.022 62.472-90.039 62.643v0zM770.722 745.326l-567.587-101.749c1.331-28.719-6.201-56.994-22.899-80.974-16.696-23.98-40.545-40.856-67.941-49.602v0l30.85-172.126c58.808 2.514 112.386-34.609 130.476-90.802v0l567.826 101.819c-2.583 58.986 34.577 112.417 90.802 130.476v0l-30.811 171.947c-1.953-0.101-3.906-0.521-5.82-0.521-56.753 0-107.437 37.123-124.897 91.533v0zM489.725 682.077c101.365 18.23 199.036-49.604 217.274-151.252 18.19-101.602-49.642-199.095-151.252-217.294-11.087-2.023-22.206-2.965-33.115-2.965-88.856 0-167.909 63.716-184.155 154.176-8.856 49.221 2.014 98.963 30.601 139.991 28.548 41.029 71.387 68.533 120.64 77.349zM523.005 650.263c-9.025 0-18.089-0.801-27.185-2.443-40.055-7.181-74.913-29.56-98.162-62.953s-32.071-73.863-24.891-113.918c7.181-40.055 29.528-74.913 62.953-98.162 33.364-23.25 73.799-32.205 113.918-24.922 82.685 14.775 137.866 94.147 123.013 176.872-7.181 40.055-29.528 74.913-62.953 98.162-25.793 17.989-55.842 27.364-86.693 27.364zM938.412 448.068c-37.473-14.053-62.503-50.022-62.675-90.039v0l52.388 9.376c6.38 1.152 11.99 4.707 15.686 10.037 3.696 5.369 5.127 11.819 3.976 18.269v0zM497.981 633.137c9.235 1.704 18.541-4.637 20.214-14.083v0l0.77-4.326 35.519 6.38c9.266 1.673 18.471-4.598 20.214-14.083 1.704-9.485-4.598-18.542-14.083-20.253v0l-35.487-6.38 11.96-66.684c33.675-4.458 58.387-24.401 63.491-52.458 5.472-30.641-12.27-60.231-40.957-72.851v0l1.043-5.89c1.704-9.445-4.598-18.502-14.083-20.214-1.011-0.179-2.093-0.28-3.105-0.28-8.263 0-15.616 5.929-17.118 14.363v0l-0.661 3.587-35.519-6.38c-1.011-0.179-2.093-0.28-3.105-0.28-8.263 0-15.616 5.929-17.118 14.363-1.704 9.485 4.598 18.542 14.083 20.253v0l35.487 6.341-11.92 66.401c-34.577 4.046-58.527 23.389-63.826 52.707-5.478 30.781 12.411 60.512 41.27 73.062v0l-1.152 6.45c-1.704 9.485 4.598 18.542 14.083 20.253zM247.763 497.716c27.185 0 49.221-22.034 49.221-49.221 0-27.179-22.034-49.213-49.221-49.213-27.179 0-49.213 22.034-49.213 49.213 0 27.185 22.034 49.221 49.213 49.221zM543.706 476.62l9.276-51.657c9.586 7.322 15.305 18.441 13.173 30.151-1.954 10.839-11.018 17.779-22.449 21.506v0zM797.104 596.214c27.179 0 49.221-22.042 49.221-49.221 0-27.185-22.042-49.221-49.221-49.221-27.185 0-49.221 22.034-49.221 49.221 0 27.179 22.034 49.221 49.221 49.221zM491.568 569.872c-9.835-7.322-15.585-18.581-13.492-30.33 2.334-12.861 12.55-18.79 22.837-21.715v0zM168.785 637.413l-52.426-9.415c-6.38-1.152-11.99-4.746-15.686-10.076-3.697-5.338-5.128-11.819-3.977-18.199v0l5.198-28.928h0.763l0.008-4.49 3.416-19.001c18.301 6.8 34.127 18.861 45.487 35.208 11.399 16.347 17.188 35.378 17.219 54.9v0zM861.905 761.252c-1.432 0-2.894-0.14-4.357-0.381v0l-52.357-9.375c14.053-37.473 50.054-62.464 90.039-62.675v0l-9.415 52.357c-1.152 6.411-4.707 12.021-10.037 15.717-4.147 2.856-8.924 4.357-13.873 4.357z" />
<glyph unicode="&#xe934;" glyph-name="ios_share" d="M682 724.667l-60-60-68 68v-476h-84v476l-68-68-60 60 170 172zM854 512.667v-470q0-36-25-61t-61-25h-512q-36 0-61 25t-25 61v470q0 34 25 59t61 25h128v-84h-128v-470h512v470h-128v84h128q36 0 61-25t25-59z" />
<glyph unicode="&#xea93;" glyph-name="whatsapp" d="M873 811.2c-95.8 96-223.2 148.8-359 148.8-279.6 0-507.2-227.6-507.2-507.4 0-89.4 23.4-176.8 67.8-253.6l-72-263 269 70.6c74.2-40.4 157.6-61.8 242.4-61.8h0.2c0 0 0 0 0 0 279.6 0 507.4 227.6 507.4 507.4 0 135.6-52.8 263-148.6 359zM514.2 30.4v0c-75.8 0-150 20.4-214.8 58.8l-15.4 9.2-159.6-41.8 42.6 155.6-10 16c-42.4 67-64.6 144.6-64.6 224.4 0 232.6 189.2 421.8 422 421.8 112.6 0 218.6-44 298.2-123.6 79.6-79.8 123.4-185.6 123.4-298.4-0.2-232.8-189.4-422-421.8-422zM745.4 346.4c-12.6 6.4-75 37-86.6 41.2s-20 6.4-28.6-6.4c-8.4-12.6-32.8-41.2-40.2-49.8-7.4-8.4-14.8-9.6-27.4-3.2s-53.6 19.8-102 63c-37.6 33.6-63.2 75.2-70.6 87.8s-0.8 19.6 5.6 25.8c5.8 5.6 12.6 14.8 19 22.2s8.4 12.6 12.6 21.2c4.2 8.4 2.2 15.8-1 22.2s-28.6 68.8-39 94.2c-10.2 24.8-20.8 21.4-28.6 21.8-7.4 0.4-15.8 0.4-24.2 0.4s-22.2-3.2-33.8-15.8c-11.6-12.6-44.4-43.4-44.4-105.8s45.4-122.6 51.8-131.2c6.4-8.4 89.4-136.6 216.6-191.4 30.2-13 53.8-20.8 72.2-26.8 30.4-9.6 58-8.2 79.8-5 24.4 3.6 75 30.6 85.6 60.2s10.6 55 7.4 60.2c-3 5.6-11.4 8.8-24.2 15.2z" />
</font>
</defs>
</svg>
